Subcategories

Peter Schreier - Mozart: Requiem, Coronation Mass (2001)

Posted By: tirexiss
Peter Schreier - Mozart: Requiem, Coronation Mass (2001)

Peter Schreier - Mozart: Requiem, Coronation Mass (2001)
EAC | FLAC (image+.cue, log) | Covers Included | 01:18:43 | 358 MB
Genre: Classical | Label: Philips | Catalog: 464720

Peter Schreier brought a lifetime's experience as a singer to the conductor's rostrum in his accounts of Mozart's Requiem, Coronation Mass, and motet Ave verum Corpus. The performances were recorded in Dresden between 1982 and 1992. A major plus is highly disciplined singing by the Leipzig Radio Chorus, whose clarity of diction and finely balanced ensemble adds much to your enjoyment of these performances; they're heard on their own account in the motet that concludes this reissue. The Requiem (in Süssmayr's completion) is powerfully and urgently driven. In the Dies irae perhaps the trumpets and timpani could have sounded more threatening, but Schreier takes it very fast, and his chorus doesn't miss a breath or syllable. The Confutatis section admirably shows off the tonal depth of the chorus tenors and basses, and the Sanctus and Benedictus are again excellently done. It's also good to hear the basset horns in the Introitus as nicely balanced as this, so their solemn interjections, like those of the trombones throughout, have majestic weight and gravitas. Of the quartet of soloists, soprano Margaret Price and bass Theo Adam acquit themselves magnificently.

Different singers are heard in the Mass; Edith Mathis is a delight, and Hans Peter Blochwitz is an accomplished tenor, but neither Jadwiga Rappé (contralto) or Thomas Quasthoff is in the same league. Still, for anyone seeking an outstanding account of the Requiem, this is an obvious choice, and Schreier's version has few ideal rivals. Philips' remastering sounds very impressive indeed. – Michael Jameson

Peter Schreier - Mozart: Requiem, Coronation Mass (2001)

Track List:

01. Requiem for soloists, chorus, and orchestra, K. 626- I. Introitus [0:05:15.13]
02. Requiem for soloists, chorus, and orchestra, K. 626- II. Kyrie [0:02:38.64]
03. Requiem for soloists, chorus, and orchestra, K. 626- III. Sequentia. Dies irae [0:01:52.70]
04. Requiem for soloists, chorus, and orchestra, K. 626- III. Sequentia. Tuba mirum [0:03:23.65]
05. Requiem for soloists, chorus, and orchestra, K. 626- III. Sequentia. Rex tremendae [0:02:03.26]
06. Requiem for soloists, chorus, and orchestra, K. 626- III. Sequentia. Recordare [0:05:30.57]
07. Requiem for soloists, chorus, and orchestra, K. 626- III. Sequentia. Confutatis [0:02:46.11]
08. Requiem for soloists, chorus, and orchestra, K. 626- III. Sequentia. Lacrimosa [0:03:05.33]
09. Requiem for soloists, chorus, and orchestra, K. 626- IV. Offertorium. Domine Jesu [0:03:54.32]
10. Requiem for soloists, chorus, and orchestra, K. 626- IV. Offertorium. Hostias [0:04:37.39]
11. Requiem for soloists, chorus, and orchestra, K. 626- V. Sanctus [0:01:42.23]
12. Requiem for soloists, chorus, and orchestra, K. 626- VI. Benedictus [0:05:19.21]
13. Requiem for soloists, chorus, and orchestra, K. 626- VII. Agnus Dei [0:03:06.72]
14. Requiem for soloists, chorus, and orchestra, K. 626- VIII. Communio. Lux aeterna [0:05:51.71]
15. Mass No. 15 for vocal soloists, chorus & orchestra in C major (-Coronation-), K. 317- I. Kyrie [0:02:47.24]
16. Mass No. 15 for vocal soloists, chorus & orchestra in C major (-Coronation-), K. 317- II. Gloria [0:04:41.56]
17. Mass No. 15 for vocal soloists, chorus & orchestra in C major (-Coronation-), K. 317- III. Credo [0:06:16.30]
18. Mass No. 15 for vocal soloists, chorus & orchestra in C major (-Coronation-), K. 317- IV. Sanctus [0:01:44.40]
19. Mass No. 15 for vocal soloists, chorus & orchestra in C major (-Coronation-), K. 317- V. Benedictus [0:03:01.19]
20. Mass No. 15 for vocal soloists, chorus & orchestra in C major (-Coronation-), K. 317- VI. Agnus Dei [0:05:59.02]
21. Ave verum Corpus, motet for chorus, strings & organ, K. 618 [0:03:02.66]

Performers:
Margaret Price - soprano
Trudelise Schmidt - mezzo-soprano
Francisco Araiza - tenor
Theo Adam - bass
Edith Mathis - soprano
Jadwiga Rappé - contralto
Hans Peter Blochwitz - tenor
Thomas Quasthoff - bass
Rundfunkchor Leipzig
Staatskapelle Dresden
Peter Schreier - conductor

Exact Audio Copy V1.0 beta 3 from 29. August 2011

EAC extraction logfile from 20. January 2014, 11:34

Peter Schreier / Mozart - Requiem, Coronation Mass - Peter Schreier

Used drive : TSSTcorpCDDVDW SH-222BB Adapter: 2 ID: 1

Read mode : Secure
Utilize accurate stream : Yes
Defeat audio cache : Yes
Make use of C2 pointers : No

Read offset correction : 6
Overread into Lead-In and Lead-Out : No
Fill up missing offset samples with silence : Yes
Delete leading and trailing silent blocks : No
Null samples used in CRC calculations : Yes
Used interface : Native Win32 interface for Win NT & 2000

Used output format : User Defined Encoder
Selected bitrate : 1024 kBit/s
Quality : High
Add ID3 tag : No
Command line compressor : C:\Program Files\Exact Audio Copy\Flac\flac.exe
Additional command line options : -8 -V -T "TITLE=%title%" -T "ARTIST=%artist%" -T "ALBUMARTIST=%albumartist%" -T "ALBUM=%albumtitle%" -T "DATE=%year%" -T "TRACKNUMBER=%tracknr%" -T "TRACKTOTAL=%numtracks%" -T "GENRE=%genre%" -T "COMMENT=%comment%" -T "PERFORMER=%albuminterpret%" -T "COMPOSER=%composer%" %source% -o %dest%


TOC of the extracted CD

Track | Start | Length | Start sector | End sector
––––––––––––––––––––––––––––-
1 | 0:00.00 | 5:15.13 | 0 | 23637
2 | 5:15.13 | 2:38.64 | 23638 | 35551
3 | 7:54.02 | 1:52.70 | 35552 | 44021
4 | 9:46.72 | 3:23.65 | 44022 | 59311
5 | 13:10.62 | 2:03.26 | 59312 | 68562
6 | 15:14.13 | 5:30.57 | 68563 | 93369
7 | 20:44.70 | 2:46.11 | 93370 | 105830
8 | 23:31.06 | 3:05.33 | 105831 | 119738
9 | 26:36.39 | 3:54.32 | 119739 | 137320
10 | 30:30.71 | 4:37.39 | 137321 | 158134
11 | 35:08.35 | 1:42.23 | 158135 | 165807
12 | 36:50.58 | 5:19.21 | 165808 | 189753
13 | 42:10.04 | 3:06.72 | 189754 | 203775
14 | 45:17.01 | 5:51.71 | 203776 | 230171
15 | 51:08.72 | 2:47.24 | 230172 | 242720
16 | 53:56.21 | 4:41.56 | 242721 | 263851
17 | 58:38.02 | 6:16.30 | 263852 | 292081
18 | 64:54.32 | 1:44.40 | 292082 | 299921
19 | 66:38.72 | 3:01.19 | 299922 | 313515
20 | 69:40.16 | 5:59.02 | 313516 | 340442
21 | 75:39.18 | 3:02.66 | 340443 | 354158


Range status and errors

Selected range

Filename E:\4000\[4328] Mozart – Requiem, Coronation Mass – Peter Schreier\Mozart - Requiem, Coronation Mass - Peter Schreier.wav

Peak level 97.1 %
Extraction speed 8.0 X
Range quality 100.0 %
Test CRC 02CED316
Copy CRC 02CED316
Copy OK

No errors occurred


AccurateRip summary

Track 1 accurately ripped (confidence 35) [B54C6941] (AR v2)
Track 2 accurately ripped (confidence 35) [B94CD012] (AR v2)
Track 3 accurately ripped (confidence 35) [4E735E51] (AR v2)
Track 4 accurately ripped (confidence 35) [93F59B19] (AR v2)
Track 5 accurately ripped (confidence 35) [A48E2596] (AR v2)
Track 6 accurately ripped (confidence 34) [9A94D6F4] (AR v2)
Track 7 accurately ripped (confidence 35) [ED38A4E0] (AR v2)
Track 8 accurately ripped (confidence 35) [A46D87F9] (AR v2)
Track 9 accurately ripped (confidence 35) [FDB6EFAF] (AR v2)
Track 10 accurately ripped (confidence 34) [DBD51310] (AR v2)
Track 11 accurately ripped (confidence 35) [E27886C0] (AR v2)
Track 12 accurately ripped (confidence 34) [A0E76E54] (AR v2)
Track 13 accurately ripped (confidence 33) [D5F0D27A] (AR v2)
Track 14 accurately ripped (confidence 34) [08EA284E] (AR v2)
Track 15 accurately ripped (confidence 34) [3080A6B5] (AR v2)
Track 16 accurately ripped (confidence 34) [F2A02799] (AR v2)
Track 17 accurately ripped (confidence 34) [7743A9E7] (AR v2)
Track 18 accurately ripped (confidence 35) [C45741E2] (AR v2)
Track 19 accurately ripped (confidence 35) [CF5CF254] (AR v2)
Track 20 accurately ripped (confidence 35) [EE719EA1] (AR v2)
Track 21 accurately ripped (confidence 34) [E60D48AD] (AR v2)

All tracks accurately ripped

End of status report

Thanks to the Original ripper (unknown)!

Welcome to my blog!

Download: