Subcategories

Montserrat Figueras, La Capella Reial De Catalunya, Hesperion XXI, Jordi Savall - Metamorphoses Fidei (2006)

Posted By: Designol
Montserrat Figueras, La Capella Reial De Catalunya, Hesperion XXI, Jordi Savall - Metamorphoses Fidei (2006)

Metamorphoses Fidei (Metamorfosis De La Fe - Métamorphoses De La Foi) (2006)
Jordi Savall, Montserrat Figueras, La Capella Reial De Catalunya, Hespèrion XXI

EAC | FLAC | Tracks (Cue&Log) ~ 322 Mb | Mp3 (CBR320) ~ 177 Mb | Scans included
Classical, Renaissance, Vocal, Choral | Label: Alia Vox | # AV 9849 | 01:12:14

This disc of Iberian and Latin American Renaissance music is a reissue cleverly disguised as a new release. It compiles music from several recordings by Catalonian visionary Jordi Savall, his luminous-voiced collaborator Montserrat Figueras, and his Hesperion XXI and Capella Reial de Catalunya ensembles, dressing them up with a new set of rather philosophical booklet notes on themes of change, of intercultural tolerance, and of the evolving nature of Christianity in the Iberian realm and in New Spain. Some might call this a cynical ploy, but actually Savall has always been moving in a circle, so to speak, spiraling inward toward a deeper musical understanding of the historical themes touched on here: the lingering effects of the legacy of medieval Iberia and its "mestissage" or mixture of cultures, the reign of Holy Roman Emperor Charles (Carlos) V (did you know that he was both the first monarch to be called "His Majesty" and the first to be honored with the claim that the "sun never set" on his empire?), and the relationships between cultivated and popular styles, both in Iberia and the New World.

So, the presentation of the disc feels like just a revisitation to some favorite spots on Savall's part, with new thoughts on the music included in the notes by Savall and by Juan Lucas. Whatever one thinks of the overarching "Old Christians: Mythology and Mysticism" and "New Christians: Mixture and Fervor" classifications that have been added here, the individual selections are gorgeous. The Sibil la Valenciana of Alonso and Bartomeu Càrceres is one of Savall's great Catalonian reconstructions, a magnificently simple and gloomy choral setting of passages of Sibyllline prophecy, with Figueras featured prominently in solo parts. Josquin's chanson Mille regretz (A Thousand Regrets) is presented along with three Spanish works based on it, with all the music related to the claim of lutenist-composer Luis de Narváez that Mille regretz was the favorite composition of Charles V, who, with a thousand regrets, renounced his throne and empire. The second part of the program, drawn from Savall's Villancicos y danzas criollas disc, contains festive semi-sacred works from the New World (mostly Mexican), several of them with an African influence. This disc might serve well as an introduction to Savall, or to where he is today for those who already know his work.

Review by James Manheim, Allmusic.com

Montserrat Figueras, La Capella Reial De Catalunya, Hesperion XXI, Jordi Savall - Metamorphoses Fidei (2006)



Montserrat Figueras - Vocals [Canto] (tracks: 1 to 11, 16, 21)
La Capella Reial De Catalunya - Choir (tracks: 1 to 11, 13, 14, 17 to 19, 22)
Hespèrion XXI - Ensemble (tracks: 13, 14, 17 to 20, 22)
Jordi Savall - Director, Viola De Gamba

Tracklist:

01. Alonso & Bartolome Carceres - Fanfares (2:04)
02. Alonso & Bartolome Carceres - Gloria tibi Domine (1:48)
03. Alonso & Bartolome Carceres - R/ Al jorn del judici (0:56)
04. Alonso & Bartolome Carceres - D'una Verge naixera (1:55)
05. Alonso & Bartolome Carceres - Mostrar-s'han quinze senyals (2:26)
06. Alonso & Bartolome Carceres - D'alt dels cels devallara (2:09)
07. Alonso & Bartolome Carceres - Portara casca escrit (2:34)
08. Alonso & Bartolome Carceres - Als bons dara goig etern (2:36)
09. Alonso & Bartolome Carceres - Mare de Deu pregau pere nos (3:08)
10. Alonso & Bartolome Carceres - Vosaltres tots que escoltau (2:53)
11. Alonso & Bartolome Carceres - Fanfares (1:25)
12. Josquin Desprez - Mille Regretz (Chanson) (2:18)
13. Cristobal de Morales - Sanctus de la Missa 'Mille Regretz' (6:03)
14. Cristobal de Morales - Agnus Dei de la Missa 'Mille Regretz' (7:04)
15. Luys de Narvaez - La Cancion del Emperador (3:08)
16. Anonyme (Andalousie) - Saenta Antigua 'No hay precedente' (5:24)
17. Mateo Flecha, el viejo - La guerra a 4 : Todos los buenos soldados (1:47)
18. Mateo Flecha, el viejo - Negrilla a 4: San Sabeya gugurumbe (5:17)
19. Juan Guttie de Padilla - Negrilla: A siolo Flasquiyo (4:29)
20. Joan Cabanilles - Batalla Imperial (5:20)
21. Tradicional Catalana - El Cant dels Aucells (3:55)
22. Juan Garcia de Zespedes - Guaracha: Ay que me abraso (3:33)


Exact Audio Copy V1.0 beta 1 from 15. November 2010

EAC extraction logfile from 27. February 2013, 15:50

Jordi Savall / Metamorphoses Fidei

Used drive : TSSTcorpCDDVDW TS-L633A Adapter: 3 ID: 0

Read mode : Secure
Utilize accurate stream : Yes
Defeat audio cache : Yes
Make use of C2 pointers : No

Read offset correction : 6
Overread into Lead-In and Lead-Out : No
Fill up missing offset samples with silence : Yes
Delete leading and trailing silent blocks : No
Null samples used in CRC calculations : Yes
Used interface : Installed external ASPI interface
Gap handling : Appended to previous track

Used output format : User Defined Encoder
Selected bitrate : 896 kBit/s
Quality : High
Add ID3 tag : No
Command line compressor : C:\Program Files\Exact Audio Copy\FLAC\FLAC.EXE
Additional command line options : -8 -V -T "ARTIST=%a" -T "TITLE=%t" -T "ALBUM=%g" -T "DATE=%y" -T "TRACKNUMBER=%n" -T "TOTALTRACKS=%x" -T "GENRE=%m" -T "ALBUMARTIST=%v" -T "ALBUM ARTIST=%v" -T "COMMENT=EAC Secure Mode, Test & Copy, AccurateRip, FLAC -8" %s


TOC of the extracted CD

Track | Start | Length | Start sector | End sector
––––––––––––––––––––––––––––-
1 | 0:00.00 | 2:04.31 | 0 | 9330
2 | 2:04.31 | 1:48.26 | 9331 | 17456
3 | 3:52.57 | 0:56.27 | 17457 | 21683
4 | 4:49.09 | 1:55.33 | 21684 | 30341
5 | 6:44.42 | 2:26.17 | 30342 | 41308
6 | 9:10.59 | 2:09.05 | 41309 | 50988
7 | 11:19.64 | 2:34.00 | 50989 | 62538
8 | 13:53.64 | 2:35.47 | 62539 | 74210
9 | 16:29.36 | 3:08.33 | 74211 | 88343
10 | 19:37.69 | 2:53.03 | 88344 | 101321
11 | 22:30.72 | 1:25.01 | 101322 | 107697
12 | 23:55.73 | 2:17.57 | 107698 | 118029
13 | 26:13.55 | 6:03.22 | 118030 | 145276
14 | 32:17.02 | 7:03.65 | 145277 | 177066
15 | 39:20.67 | 3:08.19 | 177067 | 191185
16 | 42:29.11 | 5:23.72 | 191186 | 215482
17 | 47:53.08 | 1:47.11 | 215483 | 223518
18 | 49:40.19 | 5:17.30 | 223519 | 247323
19 | 54:57.49 | 4:28.44 | 247324 | 267467
20 | 59:26.18 | 5:20.24 | 267468 | 291491
21 | 64:46.42 | 3:55.06 | 291492 | 309122
22 | 68:41.48 | 3:32.59 | 309123 | 325081


Track 1

Filename C:\MY RIPS\01 - Alonso & Bartolome Carceres - Fanfares.wav

Pre-gap length 0:00:02.00

Peak level 62.3 %
Extraction speed 1.0 X
Track quality 100.0 %
Test CRC 5F2B32EB
Copy CRC 5F2B32EB
Accurately ripped (confidence 14) [11EACEFD]
Copy OK

Track 2

Filename C:\MY RIPS\02 - Alonso & Bartolome Carceres - Gloria tibi Domine.wav

Peak level 51.7 %
Extraction speed 1.0 X
Track quality 100.0 %
Test CRC 969536E2
Copy CRC 969536E2
Accurately ripped (confidence 13) [33F9B416]
Copy OK

Track 3

Filename C:\MY RIPS\03 - Alonso & Bartolome Carceres - R, Al jorn del judici.wav

Peak level 57.6 %
Extraction speed 0.8 X
Track quality 100.0 %
Test CRC CD471750
Copy CRC CD471750
Accurately ripped (confidence 14) [0F8B3852]
Copy OK

Track 4

Filename C:\MY RIPS\04 - Alonso & Bartolome Carceres - D'una Verge naixerà.wav

Peak level 84.0 %
Extraction speed 1.1 X
Track quality 100.0 %
Test CRC 7338CBE7
Copy CRC 7338CBE7
Accurately ripped (confidence 13) [F5509ED4]
Copy OK

Track 5

Filename C:\MY RIPS\05 - Alonso & Bartolome Carceres - Mostrar-s'han quinze senyals.wav

Peak level 99.4 %
Extraction speed 1.2 X
Track quality 100.0 %
Test CRC 8367128D
Copy CRC 8367128D
Accurately ripped (confidence 13) [65F02078]
Copy OK

Track 6

Filename C:\MY RIPS\06 - Alonso & Bartolome Carceres - D'alt dels cels devallarà.wav

Peak level 98.5 %
Extraction speed 1.3 X
Track quality 100.0 %
Test CRC 5CBE29F3
Copy CRC 5CBE29F3
Accurately ripped (confidence 13) [6898FDD7]
Copy OK

Track 7

Filename C:\MY RIPS\07 - Alonso & Bartolome Carceres - Portarà cascã escrit.wav

Peak level 66.7 %
Extraction speed 1.4 X
Track quality 100.0 %
Test CRC AF566E45
Copy CRC AF566E45
Accurately ripped (confidence 13) [BBB0F5B3]
Copy OK

Track 8

Filename C:\MY RIPS\08 - Alonso & Bartolome Carceres - Als bons darà goig etern.wav

Peak level 100.0 %
Extraction speed 1.4 X
Track quality 100.0 %
Test CRC 297B868D
Copy CRC 297B868D
Accurately ripped (confidence 13) [41CB191B]
Copy OK

Track 9

Filename C:\MY RIPS\09 - Alonso & Bartolome Carceres - Mare de Deu pregau pere nos.wav

Peak level 100.0 %
Extraction speed 1.6 X
Track quality 100.0 %
Test CRC 6E08B289
Copy CRC 6E08B289
Accurately ripped (confidence 13) [465223C7]
Copy OK

Track 10

Filename C:\MY RIPS\10 - Alonso & Bartolome Carceres - Vosaltres tots que escoltau.wav

Peak level 83.8 %
Extraction speed 1.6 X
Track quality 100.0 %
Test CRC F6350F52
Copy CRC F6350F52
Accurately ripped (confidence 13) [7F810CEF]
Copy OK

Track 11

Filename C:\MY RIPS\11 - Alonso & Bartolome Carceres - Fanfares.wav

Peak level 40.9 %
Extraction speed 0.7 X
Track quality 99.8 %
Test CRC 1D3A53E3
Copy CRC 1D3A53E3
Accurately ripped (confidence 13) [2BEDE553]
Copy OK

Track 12

Filename C:\MY RIPS\12 - Josquin Desprez - Mille Regretz (Chanson).wav

Pre-gap length 0:00:03.27

Peak level 42.8 %
Extraction speed 1.6 X
Track quality 100.0 %
Test CRC 8D2E85B7
Copy CRC 8D2E85B7
Accurately ripped (confidence 13) [8AE5BA4C]
Copy OK

Track 13

Filename C:\MY RIPS\13 - Cristobal de Morales - Sanctus de la Missa ''Mille Regretz''.wav

Pre-gap length 0:00:03.61

Peak level 97.9 %
Extraction speed 1.9 X
Track quality 100.0 %
Test CRC 002DE890
Copy CRC 002DE890
Accurately ripped (confidence 13) [2E74580F]
Copy OK

Track 14

Filename C:\MY RIPS\14 - Cristobal de Morales - Agnus Dei de la Missa ''Mille Regretz''.wav

Peak level 82.2 %
Extraction speed 2.1 X
Track quality 100.0 %
Test CRC 724CF80F
Copy CRC 724CF80F
Accurately ripped (confidence 13) [396C10DC]
Copy OK

Track 15

Filename C:\MY RIPS\15 - Luys de Narvaez - La Canción del Emperador.wav

Pre-gap length 0:00:02.71

Peak level 22.5 %
Extraction speed 1.9 X
Track quality 100.0 %
Test CRC 9EB6F220
Copy CRC 9EB6F220
Accurately ripped (confidence 13) [43D18929]
Copy OK

Track 16

Filename C:\MY RIPS\16 - Anonyme (Andalousie) - Saenta Antigua ''No hay precedente''.wav

Pre-gap length 0:00:04.35

Peak level 96.9 %
Extraction speed 2.2 X
Track quality 100.0 %
Test CRC 451C92B2
Copy CRC 451C92B2
Accurately ripped (confidence 13) [08646DCA]
Copy OK

Track 17

Filename C:\MY RIPS\17 - Mateo Flecha, el viejo - La guerra a 4 - Todos los buenos soldados.wav

Peak level 97.9 %
Extraction speed 1.8 X
Track quality 100.0 %
Test CRC 4315125F
Copy CRC 4315125F
Accurately ripped (confidence 14) [02041658]
Copy OK

Track 18

Filename C:\MY RIPS\18 - Mateo Flecha, el viejo - Negrilla a 4- San Sabeya gugurumbe.wav

Peak level 86.4 %
Extraction speed 2.3 X
Track quality 100.0 %
Test CRC E7F83820
Copy CRC E7F83820
Accurately ripped (confidence 13) [3B113960]
Copy OK

Track 19

Filename C:\MY RIPS\19 - Juan Guttie de Padilla - Negrilla- A siolo Flasquiyo.wav

Pre-gap length 0:00:03.09

Peak level 80.1 %
Extraction speed 2.3 X
Track quality 100.0 %
Test CRC 64429551
Copy CRC 64429551
Accurately ripped (confidence 13) [9CF76E06]
Copy OK

Track 20

Filename C:\MY RIPS\20 - Joan Cabanilles - Batalla Imperial.wav

Pre-gap length 0:00:04.13

Peak level 98.8 %
Extraction speed 2.4 X
Track quality 100.0 %
Test CRC E8FD991D
Copy CRC E8FD991D
Accurately ripped (confidence 14) [6A5E0033]
Copy OK

Track 21

Filename C:\MY RIPS\21 - Tradicional Catalana - El Cant dels Aucells.wav

Pre-gap length 0:00:03.25

Peak level 100.0 %
Extraction speed 1.5 X
Track quality 99.9 %
Test CRC 421EEED0
Copy CRC 421EEED0
Accurately ripped (confidence 14) [A8EEB538]
Copy OK

Track 22

Filename C:\MY RIPS\22 - Juan Garcia de Zespedes - Guaracha- Ay que me abraso.wav

Pre-gap length 0:00:03.03

Peak level 100.0 %
Extraction speed 2.4 X
Track quality 100.0 %
Test CRC 3E03E4AD
Copy CRC 3E03E4AD
Accurately ripped (confidence 13) [B229A222]
Copy OK


All tracks accurately ripped

No errors occurred

End of status report

==== Log checksum 694243947AA7ACFA35F0C90149E15316B141A88501FBF097CFF39CFD71990F49 ====

[CUETools log; Date: 28.10.2017 20:16:36; Version: 2.1.4]
[CTDB TOCID: KSMPdCIzWZTR0e.XBS2_rg0tdWM-] found.
Track | CTDB Status
1 | (32/32) Accurately ripped
2 | (32/32) Accurately ripped
3 | (32/32) Accurately ripped
4 | (32/32) Accurately ripped
5 | (32/32) Accurately ripped
6 | (32/32) Accurately ripped
7 | (32/32) Accurately ripped
8 | (32/32) Accurately ripped
9 | (32/32) Accurately ripped
10 | (32/32) Accurately ripped
11 | (32/32) Accurately ripped
12 | (32/32) Accurately ripped
13 | (32/32) Accurately ripped
14 | (31/32) Accurately ripped
15 | (32/32) Accurately ripped
16 | (32/32) Accurately ripped
17 | (31/32) Accurately ripped
18 | (31/32) Accurately ripped
19 | (32/32) Accurately ripped
20 | (32/32) Accurately ripped
21 | (32/32) Accurately ripped
22 | (32/32) Accurately ripped
[AccurateRip ID: 002f8cf5-03258334-5410ee16] found.
Track [ CRC | V2 ] Status
01 [11eacefd|865ce0e5] (15+19/34) Accurately ripped
02 [33f9b416|f5bff68a] (14+18/32) Accurately ripped
03 [0f8b3852|eaab5afc] (15+18/33) Accurately ripped
04 [f5509ed4|0e0541dd] (14+18/32) Accurately ripped
05 [65f02078|aea0bdfe] (14+18/32) Accurately ripped
06 [6898fdd7|e6e99a05] (14+18/32) Accurately ripped
07 [bbb0f5b3|f3d822b4] (14+18/32) Accurately ripped
08 [41cb191b|576ad7e6] (14+18/32) Accurately ripped
09 [465223c7|34a56612] (14+18/32) Accurately ripped
10 [7f810cef|d1449f46] (14+18/32) Accurately ripped
11 [2bede553|2fb6ee22] (14+18/32) Accurately ripped
12 [8ae5ba4c|7a9c1aac] (14+17/31) Accurately ripped
13 [2e74580f|309b35a0] (14+17/31) Accurately ripped
14 [396c10dc|97d21ea9] (14+17/31) Accurately ripped
15 [43d18929|c597c7e9] (14+17/31) Accurately ripped
16 [08646dca|a1968742] (14+17/31) Accurately ripped
17 [02041658|f95f8fd1] (15+18/33) Accurately ripped
18 [3b113960|298e6860] (14+17/31) Accurately ripped
19 [9cf76e06|9f052904] (14+17/31) Accurately ripped
20 [6a5e0033|df10f555] (15+17/32) Accurately ripped
21 [a8eeb538|e972647d] (15+17/32) Accurately ripped
22 [b229a222|dba90002] (14+17/31) Accurately ripped

Track Peak [ CRC32 ] [W/O NULL] [ LOG ]
– 100,0 [D50759A7] [9FB72DBE]
01 62,3 [5F2B32EB] [4073340B] CRC32
02 51,7 [969536E2] [55364CA8] CRC32
03 57,6 [CD471750] [BF2CED95] CRC32
04 84,0 [7338CBE7] [9C672F8E] CRC32
05 99,4 [8367128D] [51226247] CRC32
06 98,5 [5CBE29F3] [BB2B346F] CRC32
07 66,7 [AF566E45] [C64EDF29] CRC32
08 100,0 [297B868D] [49DC3A67] CRC32
09 100,0 [6E08B289] [97529C2D] CRC32
10 83,8 [F6350F52] [20CCB580] CRC32
11 40,9 [1D3A53E3] [9A65C55E] CRC32
12 42,8 [8D2E85B7] [03078970] CRC32
13 97,9 [002DE890] [7B9B63C1] CRC32
14 82,2 [724CF80F] [E52DB7A9] CRC32
15 22,5 [9EB6F220] [77063C04] CRC32
16 96,9 [451C92B2] [92B5F4F9] CRC32
17 97,9 [4315125F] [6DD516BC] CRC32
18 86,4 [E7F83820] [094E1E75] CRC32
19 80,1 [64429551] [F5AB8294] CRC32
20 98,8 [E8FD991D] [F291C15D] CRC32
21 100,0 [421EEED0] [EA6F3FF8] CRC32
22 100,0 [3E03E4AD] [34F1BA05] CRC32

foobar2000 1.2 / Dynamic Range Meter 1.1.1
log date: 2017-10-28 20:37:28

––––––––––––––––––––––––––––––––––––––––
Analyzed: Jordi Savall / Metamorphoses Fidei
––––––––––––––––––––––––––––––––––––––––

DR Peak RMS Duration Track
––––––––––––––––––––––––––––––––––––––––
DR12 -4.11 dB -18.98 dB 2:04 01-Alonso & Bartolome Carceres - Fanfares
DR13 -5.72 dB -25.09 dB 1:48 02-Alonso & Bartolome Carceres - Gloria tibi Domine
DR10 -4.78 dB -22.12 dB 0:56 03-Alonso & Bartolome Carceres - R/ Al jorn del judici
DR14 -1.51 dB -22.51 dB 1:55 04-Alonso & Bartolome Carceres - D'una Verge naixera
DR14 -0.05 dB -22.26 dB 2:26 05-Alonso & Bartolome Carceres - Mostrar-s'han quinze senyals
DR15 -0.13 dB -22.24 dB 2:09 06-Alonso & Bartolome Carceres - D'alt dels cels devallara
DR12 -3.51 dB -24.54 dB 2:34 07-Alonso & Bartolome Carceres - Portara casca escrit
DR13 0.00 dB -22.81 dB 2:36 08-Alonso & Bartolome Carceres - Als bons dara goig etern
DR12 0.00 dB -21.27 dB 3:08 09-Alonso & Bartolome Carceres - Mare de Deu pregau pere nos
DR13 -1.53 dB -20.99 dB 2:53 10-Alonso & Bartolome Carceres - Vosaltres tots que escoltau
DR12 -7.75 dB -22.69 dB 1:25 11-Alonso & Bartolome Carceres - Fanfares
DR12 -7.36 dB -25.51 dB 2:18 12-Josquin Desprez - Mille Regretz (Chanson)
DR12 -0.18 dB -17.76 dB 6:03 13-Cristobal de Morales - Sanctus de la Missa 'Mille Regretz'
DR12 -1.70 dB -18.62 dB 7:04 14-Cristobal de Morales - Agnus Dei de la Missa 'Mille Regretz'
DR14 -12.93 dB -32.39 dB 3:08 15-Luys de Narvaez - La Cancion del Emperador
DR11 -0.27 dB -16.30 dB 5:24 16-Anonyme (Andalousie) - Saenta Antigua 'No hay precedente'
DR13 -0.18 dB -16.67 dB 1:47 17-Mateo Flecha, el viejo - La guerra a 4 : Todos los buenos soldados
DR11 -1.26 dB -16.50 dB 5:17 18-Mateo Flecha, el viejo - Negrilla a 4: San Sabeya gugurumbe
DR10 -1.92 dB -15.24 dB 4:29 19-Juan Guttie de Padilla - Negrilla: A siolo Flasquiyo
DR14 -0.10 dB -17.75 dB 5:20 20-Joan Cabanilles - Batalla Imperial
DR14 0.00 dB -18.54 dB 3:55 21-Tradicional Catalana - El Cant dels Aucells
DR13 0.00 dB -16.85 dB 3:33 22-Juan Garcia de Zespedes - Guaracha: Ay que me abraso
––––––––––––––––––––––––––––––––––––––––

Number of tracks: 22
Official DR value: DR13

Samplerate: 44100 Hz
Channels: 2
Bits per sample: 16
Bitrate: 747 kbps
Codec: FLAC
================================================================================

Montserrat Figueras, La Capella Reial De Catalunya, Hesperion XXI, Jordi Savall - Metamorphoses Fidei (2006)

Montserrat Figueras, La Capella Reial De Catalunya, Hesperion XXI, Jordi Savall - Metamorphoses Fidei (2006)

All thanks to original releaser - miloslav2011

More interesting music in My Blog